osu file format v14

[General]
AudioFilename: Endless Story.mp3
AudioLeadIn: 1500
PreviewTime: 56949
Countdown: 0
SampleSet: None
StackLeniency: 0.7
Mode: 3
LetterboxInBreaks: 0
WidescreenStoryboard: 1

[Editor]
DistanceSpacing: 0.8
BeatDivisor: 4
GridSize: 32
TimelineZoom: 2

[Metadata]
Title:Anime OP/ED Fantasy
TitleUnicode:Anime OP/ED Fantasy
Artist:Various Artist
ArtistUnicode:Various Artist
Creator:bima fajar
Version:Endless Story [4k HD]
Source:
Tags:log horizon log horizon 2 bleach 11eyes black bullet C3 shikyubu romeo x juliet naruto attack on titan chaos dragon sekiryuu sen'eki accel world mahouka koukou no rettousei
BeatmapID:828879
BeatmapSetID:378584

[Difficulty]
HPDrainRate:7
CircleSize:4
OverallDifficulty:8
ApproachRate:5
SliderMultiplier:1.4
SliderTickRate:1

[Events]
//Background and Video events
0,0,"c3fear.jpg",0,0
//Break Periods
//Storyboard Layer 0 (Background)
//Storyboard Layer 1 (Fail)
//Storyboard Layer 2 (Pass)
//Storyboard Layer 3 (Foreground)
//Storyboard Sound Samples

[TimingPoints]
0,759.493670886076,4,2,0,100,1,0
13549,320.855614973262,4,2,0,100,1,0

[HitObjects]
64,192,379,1,0,0:0:0:0:
192,192,569,1,0,0:0:0:0:
320,192,949,128,0,1518:0:0:0:0:
448,192,1708,128,0,2278:0:0:0:0:
320,192,2468,128,0,3037:0:0:0:0:
192,192,3417,128,0,3797:0:0:0:0:
320,192,3797,128,0,4177:0:0:0:0:
192,192,4177,1,0,0:0:0:0:
320,192,4367,128,0,4746:0:0:0:0:
192,192,4746,128,0,5126:0:0:0:0:
320,192,5126,128,0,5506:0:0:0:0:
192,192,5506,128,0,6455:0:0:0:0:
448,192,6455,128,0,6835:0:0:0:0:
64,192,6645,128,0,7025:0:0:0:0:
320,192,7025,128,0,7784:0:0:0:0:
192,192,7784,128,0,8354:0:0:0:0:
448,192,8354,128,0,9303:0:0:0:0:
64,192,9303,128,0,9683:0:0:0:0:
320,192,9683,128,0,10063:0:0:0:0:
192,192,10063,128,0,10443:0:0:0:0:
448,192,10443,128,0,10822:0:0:0:0:
320,192,10822,128,0,11202:0:0:0:0:
192,192,11202,128,0,11582:0:0:0:0:
320,192,11582,128,0,13291:0:0:0:0:
192,192,13481,1,0,0:0:0:0:
192,192,13869,1,0,0:0:0:0:
320,192,14190,1,0,0:0:0:0:
448,192,14190,1,0,0:0:0:0:
64,192,14190,1,0,0:0:0:0:
448,192,14511,1,0,0:0:0:0:
192,192,14832,1,0,0:0:0:0:
320,192,14832,1,0,0:0:0:0:
320,192,14992,1,0,0:0:0:0:
192,192,14992,1,0,0:0:0:0:
320,192,15153,1,0,0:0:0:0:
192,192,15233,1,0,0:0:0:0:
320,192,15313,1,0,0:0:0:0:
64,192,15393,1,0,0:0:0:0:
320,192,15474,1,0,0:0:0:0:
64,192,15554,1,0,0:0:0:0:
448,192,15794,1,0,0:0:0:0:
64,192,15875,1,0,0:0:0:0:
320,192,16196,1,0,0:0:0:0:
64,192,16196,1,0,0:0:0:0:
320,192,16356,1,0,0:0:0:0:
192,192,16356,1,0,0:0:0:0:
448,192,16516,1,0,0:0:0:0:
192,192,16516,1,0,0:0:0:0:
320,192,16677,1,0,0:0:0:0:
64,192,16757,1,0,0:0:0:0:
320,192,16837,1,0,0:0:0:0:
64,192,16917,1,0,0:0:0:0:
448,192,16998,1,0,0:0:0:0:
192,192,17078,1,0,0:0:0:0:
320,192,17158,1,0,0:0:0:0:
448,192,17158,1,0,0:0:0:0:
64,192,17238,1,0,0:0:0:0:
448,192,17319,1,0,0:0:0:0:
64,192,17399,1,0,0:0:0:0:
320,192,17479,1,0,0:0:0:0:
448,192,17559,1,0,0:0:0:0:
192,192,17559,1,0,0:0:0:0:
448,192,17720,1,0,0:0:0:0:
320,192,17720,1,0,0:0:0:0:
64,192,17800,1,0,0:0:0:0:
448,192,17880,1,0,0:0:0:0:
320,192,17880,1,0,0:0:0:0:
64,192,17960,1,0,0:0:0:0:
320,192,18040,1,0,0:0:0:0:
192,192,18121,1,0,0:0:0:0:
448,192,18201,1,0,0:0:0:0:
320,192,18442,1,0,0:0:0:0:
64,192,18442,1,0,0:0:0:0:
448,192,18762,1,0,0:0:0:0:
64,192,18923,1,0,0:0:0:0:
320,192,18923,1,0,0:0:0:0:
320,192,19083,1,0,0:0:0:0:
192,192,19083,1,0,0:0:0:0:
448,192,19244,1,0,0:0:0:0:
64,192,19244,1,0,0:0:0:0:
320,192,19404,1,0,0:0:0:0:
448,192,19404,1,0,0:0:0:0:
192,192,19404,1,0,0:0:0:0:
64,192,19404,1,0,0:0:0:0:
64,192,19725,1,0,0:0:0:0:
320,192,19725,1,0,0:0:0:0:
192,192,20046,1,0,0:0:0:0:
320,192,20046,1,0,0:0:0:0:
320,192,20206,1,0,0:0:0:0:
192,192,20206,1,0,0:0:0:0:
320,192,20367,1,0,0:0:0:0:
64,192,20367,1,0,0:0:0:0:
448,192,20447,1,0,0:0:0:0:
192,192,20527,1,0,0:0:0:0:
320,192,20688,1,0,0:0:0:0:
448,192,20688,1,0,0:0:0:0:
64,192,20688,1,0,0:0:0:0:
192,192,21008,1,0,0:0:0:0:
320,192,21008,1,0,0:0:0:0:
448,192,21008,1,0,0:0:0:0:
64,192,21329,1,0,0:0:0:0:
320,192,21329,1,0,0:0:0:0:
320,192,21490,1,0,0:0:0:0:
64,192,21490,1,0,0:0:0:0:
448,192,21650,1,0,0:0:0:0:
192,192,21650,1,0,0:0:0:0:
320,192,21811,1,0,0:0:0:0:
448,192,21811,1,0,0:0:0:0:
192,192,21811,1,0,0:0:0:0:
320,192,21971,1,0,0:0:0:0:
448,192,21971,1,0,0:0:0:0:
64,192,21971,1,0,0:0:0:0:
320,192,22131,1,0,0:0:0:0:
448,192,22131,1,0,0:0:0:0:
192,192,22131,1,0,0:0:0:0:
448,192,22212,1,0,0:0:0:0:
64,192,22372,1,0,0:0:0:0:
320,192,22372,1,0,0:0:0:0:
448,192,22532,1,0,0:0:0:0:
320,192,22532,1,0,0:0:0:0:
64,192,22532,1,0,0:0:0:0:
192,192,22693,1,0,0:0:0:0:
448,192,22693,1,0,0:0:0:0:
64,192,22853,1,0,0:0:0:0:
448,192,22853,1,0,0:0:0:0:
320,192,22934,1,0,0:0:0:0:
192,192,22934,1,0,0:0:0:0:
448,192,23094,1,0,0:0:0:0:
64,192,23094,1,0,0:0:0:0:
320,192,23094,1,0,0:0:0:0:
64,192,23415,1,0,0:0:0:0:
320,192,23415,1,0,0:0:0:0:
448,192,23415,1,0,0:0:0:0:
320,192,23575,1,0,0:0:0:0:
448,192,23575,1,0,0:0:0:0:
192,192,23575,1,0,0:0:0:0:
64,192,23575,1,0,0:0:0:0:
64,192,23816,1,0,0:0:0:0:
320,192,23896,1,0,0:0:0:0:
64,192,24057,1,0,0:0:0:0:
320,192,24057,1,0,0:0:0:0:
192,192,24137,1,0,0:0:0:0:
448,192,24137,1,0,0:0:0:0:
320,192,24297,1,0,0:0:0:0:
192,192,24297,1,0,0:0:0:0:
64,192,24458,1,0,0:0:0:0:
320,192,24458,1,0,0:0:0:0:
448,192,24458,1,0,0:0:0:0:
448,192,24538,1,0,0:0:0:0:
192,192,24538,1,0,0:0:0:0:
320,192,24538,1,0,0:0:0:0:
320,192,24859,1,0,0:0:0:0:
64,192,24859,1,0,0:0:0:0:
320,192,25019,1,0,0:0:0:0:
64,192,25019,1,0,0:0:0:0:
192,192,25180,1,0,0:0:0:0:
320,192,25180,1,0,0:0:0:0:
448,192,25260,1,0,0:0:0:0:
192,192,25340,1,0,0:0:0:0:
320,192,25420,1,0,0:0:0:0:
448,192,25420,1,0,0:0:0:0:
192,192,25500,1,0,0:0:0:0:
448,192,25661,1,0,0:0:0:0:
64,192,25661,1,0,0:0:0:0:
320,192,25741,1,0,0:0:0:0:
64,192,25821,1,0,0:0:0:0:
320,192,25901,1,0,0:0:0:0:
192,192,26062,1,0,0:0:0:0:
448,192,26062,1,0,0:0:0:0:
64,192,26222,1,0,0:0:0:0:
448,192,26222,1,0,0:0:0:0:
448,192,26383,1,0,0:0:0:0:
192,192,26383,1,0,0:0:0:0:
320,192,26383,1,0,0:0:0:0:
320,192,26543,1,0,0:0:0:0:
192,192,26543,1,0,0:0:0:0:
320,192,26704,1,0,0:0:0:0:
448,192,26784,1,0,0:0:0:0:
64,192,26864,1,0,0:0:0:0:
320,192,26944,1,0,0:0:0:0:
64,192,27024,1,0,0:0:0:0:
320,192,27105,1,0,0:0:0:0:
192,192,27265,1,0,0:0:0:0:
320,192,27265,1,0,0:0:0:0:
320,192,27426,1,0,0:0:0:0:
192,192,27506,1,0,0:0:0:0:
448,192,27586,1,0,0:0:0:0:
192,192,27666,1,0,0:0:0:0:
320,192,27746,1,0,0:0:0:0:
448,192,27746,1,0,0:0:0:0:
192,192,27827,1,0,0:0:0:0:
320,192,27907,1,0,0:0:0:0:
64,192,27987,1,0,0:0:0:0:
320,192,27987,1,0,0:0:0:0:
64,192,28147,1,0,0:0:0:0:
320,192,28228,1,0,0:0:0:0:
448,192,28308,1,0,0:0:0:0:
192,192,28388,1,0,0:0:0:0:
192,192,28549,1,0,0:0:0:0:
320,192,28629,1,0,0:0:0:0:
448,192,28629,1,0,0:0:0:0:
192,192,28709,1,0,0:0:0:0:
448,192,28789,1,0,0:0:0:0:
192,192,28869,1,0,0:0:0:0:
320,192,28950,1,0,0:0:0:0:
64,192,29110,1,0,0:0:0:0:
448,192,29110,1,0,0:0:0:0:
192,192,29190,1,0,0:0:0:0:
320,192,29270,1,0,0:0:0:0:
64,192,29351,1,0,0:0:0:0:
320,192,29431,1,0,0:0:0:0:
192,192,29431,1,0,0:0:0:0:
320,192,29591,1,0,0:0:0:0:
64,192,29591,128,0,31276:0:0:0:0:
448,192,29752,1,0,0:0:0:0:
192,192,29752,1,0,0:0:0:0:
320,192,29912,1,0,0:0:0:0:
192,192,29912,1,0,0:0:0:0:
320,192,29992,1,0,0:0:0:0:
192,192,30153,1,0,0:0:0:0:
448,192,30153,1,0,0:0:0:0:
320,192,30313,1,0,0:0:0:0:
192,192,30313,1,0,0:0:0:0:
320,192,30474,1,0,0:0:0:0:
192,192,30554,1,0,0:0:0:0:
448,192,30634,1,0,0:0:0:0:
192,192,30794,1,0,0:0:0:0:
320,192,30794,1,0,0:0:0:0:
448,192,30875,1,0,0:0:0:0:
192,192,30955,1,0,0:0:0:0:
320,192,31035,1,0,0:0:0:0:
192,192,31196,1,0,0:0:0:0:
448,192,31276,128,0,31597:0:0:0:0:
192,192,31356,1,0,0:0:0:0:
320,192,31597,1,0,0:0:0:0:
64,192,31597,1,0,0:0:0:0:
192,192,31837,1,0,0:0:0:0:
448,192,31837,1,0,0:0:0:0:
320,192,31917,1,0,0:0:0:0:
64,192,31998,1,0,0:0:0:0:
192,192,32158,1,0,0:0:0:0:
320,192,32158,1,0,0:0:0:0:
448,192,32319,1,0,0:0:0:0:
192,192,32399,1,0,0:0:0:0:
320,192,32479,1,0,0:0:0:0:
64,192,32559,1,0,0:0:0:0:
320,192,32639,1,0,0:0:0:0:
192,192,32720,1,0,0:0:0:0:
320,192,32880,1,0,0:0:0:0:
64,192,32880,1,0,0:0:0:0:
448,192,33040,1,0,0:0:0:0:
64,192,33121,1,0,0:0:0:0:
192,192,33121,1,0,0:0:0:0:
320,192,33201,1,0,0:0:0:0:
64,192,33281,1,0,0:0:0:0:
320,192,33361,1,0,0:0:0:0:
192,192,33522,1,0,0:0:0:0:
320,192,33522,1,0,0:0:0:0:
64,192,33682,1,0,0:0:0:0:
448,192,33682,1,0,0:0:0:0:
320,192,33843,1,0,0:0:0:0:
192,192,33843,1,0,0:0:0:0:
320,192,34003,1,0,0:0:0:0:
192,192,34003,1,0,0:0:0:0:
448,192,34163,1,0,0:0:0:0:
64,192,34163,1,0,0:0:0:0:
192,192,34324,1,0,0:0:0:0:
320,192,34324,1,0,0:0:0:0:
64,192,34404,1,0,0:0:0:0:
448,192,34484,1,0,0:0:0:0:
320,192,34484,1,0,0:0:0:0:
192,192,34565,1,0,0:0:0:0:
64,192,34725,128,0,35447:0:0:0:0:
320,192,34805,1,0,0:0:0:0:
448,192,34885,1,0,0:0:0:0:
192,192,35046,1,0,0:0:0:0:
448,192,35046,1,0,0:0:0:0:
320,192,35046,1,0,0:0:0:0:
448,192,35206,1,0,0:0:0:0:
192,192,35206,1,0,0:0:0:0:
320,192,35286,1,0,0:0:0:0:
192,192,35447,1,0,0:0:0:0:
448,192,35447,1,0,0:0:0:0:
320,192,35447,1,0,0:0:0:0:
448,192,35607,128,0,36169:0:0:0:0:
192,192,35688,1,0,0:0:0:0:
320,192,35768,1,0,0:0:0:0:
192,192,35848,1,0,0:0:0:0:
320,192,35928,1,0,0:0:0:0:
320,192,36089,1,0,0:0:0:0:
64,192,36089,128,0,37372:0:0:0:0:
192,192,36249,1,0,0:0:0:0:
448,192,36249,1,0,0:0:0:0:
320,192,36409,1,0,0:0:0:0:
192,192,36490,1,0,0:0:0:0:
320,192,36490,1,0,0:0:0:0:
448,192,36570,1,0,0:0:0:0:
320,192,36730,1,0,0:0:0:0:
192,192,36730,1,0,0:0:0:0:
448,192,36811,1,0,0:0:0:0:
192,192,36971,1,0,0:0:0:0:
320,192,36971,1,0,0:0:0:0:
320,192,37131,1,0,0:0:0:0:
448,192,37131,1,0,0:0:0:0:
320,192,37292,1,0,0:0:0:0:
192,192,37292,128,0,38094:0:0:0:0:
448,192,37532,1,0,0:0:0:0:
320,192,37613,1,0,0:0:0:0:
64,192,37693,1,0,0:0:0:0:
448,192,37773,1,0,0:0:0:0:
64,192,37934,1,0,0:0:0:0:
320,192,38014,1,0,0:0:0:0:
448,192,38094,128,0,38575:0:0:0:0:
192,192,38254,1,0,0:0:0:0:
320,192,38335,1,0,0:0:0:0:
192,192,38495,1,0,0:0:0:0:
320,192,38655,1,0,0:0:0:0:
192,192,38655,1,0,0:0:0:0:
448,192,38736,1,0,0:0:0:0:
320,192,38896,1,0,0:0:0:0:
192,192,38896,1,0,0:0:0:0:
448,192,39057,1,0,0:0:0:0:
192,192,39137,1,0,0:0:0:0:
320,192,39217,1,0,0:0:0:0:
448,192,39297,1,0,0:0:0:0:
192,192,39377,1,0,0:0:0:0:
320,192,39458,1,0,0:0:0:0:
192,192,39538,1,0,0:0:0:0:
320,192,39698,1,0,0:0:0:0:
448,192,39698,1,0,0:0:0:0:
64,192,39778,1,0,0:0:0:0:
192,192,39778,1,0,0:0:0:0:
320,192,39859,1,0,0:0:0:0:
64,192,40180,1,0,0:0:0:0:
320,192,40180,1,0,0:0:0:0:
64,192,40500,1,0,0:0:0:0:
320,192,40500,1,0,0:0:0:0:
320,192,40661,1,0,0:0:0:0:
192,192,40661,1,0,0:0:0:0:
448,192,40741,1,0,0:0:0:0:
192,192,40901,1,0,0:0:0:0:
320,192,40901,1,0,0:0:0:0:
192,192,41062,1,0,0:0:0:0:
448,192,41062,1,0,0:0:0:0:
320,192,41142,1,0,0:0:0:0:
320,192,41222,1,0,0:0:0:0:
448,192,41222,1,0,0:0:0:0:
64,192,41222,1,0,0:0:0:0:
320,192,41383,1,0,0:0:0:0:
192,192,41463,1,0,0:0:0:0:
320,192,41543,1,0,0:0:0:0:
64,192,41623,1,0,0:0:0:0:
448,192,41704,1,0,0:0:0:0:
64,192,41864,1,0,0:0:0:0:
320,192,41864,1,0,0:0:0:0:
192,192,42024,1,0,0:0:0:0:
448,192,42024,1,0,0:0:0:0:
448,192,42185,1,0,0:0:0:0:
320,192,42185,1,0,0:0:0:0:
64,192,42185,1,0,0:0:0:0:
320,192,42426,1,0,0:0:0:0:
64,192,42426,128,0,42827:0:0:0:0:
448,192,42746,1,0,0:0:0:0:
192,192,42746,128,0,43067:0:0:0:0:
320,192,43067,1,0,0:0:0:0:
192,192,43147,1,0,0:0:0:0:
448,192,43228,1,0,0:0:0:0:
64,192,43308,1,0,0:0:0:0:
320,192,43388,1,0,0:0:0:0:
192,192,43709,1,0,0:0:0:0:
320,192,43709,1,0,0:0:0:0:
64,192,43950,1,0,0:0:0:0:
320,192,44030,1,0,0:0:0:0:
64,192,44351,1,0,0:0:0:0:
320,192,44351,1,0,0:0:0:0:
448,192,44351,1,0,0:0:0:0:
64,192,44511,1,0,0:0:0:0:
320,192,44511,1,0,0:0:0:0:
448,192,44511,1,0,0:0:0:0:
320,192,44671,1,0,0:0:0:0:
448,192,44671,1,0,0:0:0:0:
64,192,44671,1,0,0:0:0:0:
192,192,44992,1,0,0:0:0:0:
448,192,44992,1,0,0:0:0:0:
320,192,45313,1,0,0:0:0:0:
448,192,45474,1,0,0:0:0:0:
192,192,45634,1,0,0:0:0:0:
320,192,45634,1,0,0:0:0:0:
448,192,45634,1,0,0:0:0:0:
448,192,45955,1,0,0:0:0:0:
320,192,46115,1,0,0:0:0:0:
64,192,46276,1,0,0:0:0:0:
320,192,46276,1,0,0:0:0:0:
448,192,46436,1,0,0:0:0:0:
192,192,46516,1,0,0:0:0:0:
320,192,46597,1,0,0:0:0:0:
448,192,46757,1,0,0:0:0:0:
320,192,46998,1,0,0:0:0:0:
192,192,46998,1,0,0:0:0:0:
320,192,47158,1,0,0:0:0:0:
320,192,47319,1,0,0:0:0:0:
64,192,47319,1,0,0:0:0:0:
320,192,47479,1,0,0:0:0:0:
192,192,47559,1,0,0:0:0:0:
448,192,47639,1,0,0:0:0:0:
192,192,47720,1,0,0:0:0:0:
320,192,47800,1,0,0:0:0:0:
192,192,47960,1,0,0:0:0:0:
320,192,47960,1,0,0:0:0:0:
64,192,48121,1,0,0:0:0:0:
320,192,48121,1,0,0:0:0:0:
64,192,48361,1,0,0:0:0:0:
320,192,48361,1,0,0:0:0:0:
320,192,48522,1,0,0:0:0:0:
192,192,48522,1,0,0:0:0:0:
320,192,48682,1,0,0:0:0:0:
64,192,48762,1,0,0:0:0:0:
448,192,48843,1,0,0:0:0:0:
320,192,48843,1,0,0:0:0:0:
64,192,49003,1,0,0:0:0:0:
320,192,49003,1,0,0:0:0:0:
448,192,49003,1,0,0:0:0:0:
448,192,49163,1,0,0:0:0:0:
192,192,49163,1,0,0:0:0:0:
320,192,49163,1,0,0:0:0:0:
448,192,49324,1,0,0:0:0:0:
192,192,49404,1,0,0:0:0:0:
320,192,49484,1,0,0:0:0:0:
64,192,49565,1,0,0:0:0:0:
448,192,49645,1,0,0:0:0:0:
320,192,49645,1,0,0:0:0:0:
64,192,49805,1,0,0:0:0:0:
320,192,49805,1,0,0:0:0:0:
192,192,49966,1,0,0:0:0:0:
320,192,49966,1,0,0:0:0:0:
448,192,50126,1,0,0:0:0:0:
64,192,50126,1,0,0:0:0:0:
192,192,50126,1,0,0:0:0:0:
320,192,50286,1,0,0:0:0:0:
192,192,50447,1,0,0:0:0:0:
320,192,50447,1,0,0:0:0:0:
320,192,50607,1,0,0:0:0:0:
192,192,50607,1,0,0:0:0:0:
448,192,50768,1,0,0:0:0:0:
64,192,50768,1,0,0:0:0:0:
192,192,50768,1,0,0:0:0:0:
320,192,51008,1,0,0:0:0:0:
64,192,51089,1,0,0:0:0:0:
320,192,51169,1,0,0:0:0:0:
64,192,51329,1,0,0:0:0:0:
192,192,51329,1,0,0:0:0:0:
320,192,51409,1,0,0:0:0:0:
64,192,51490,1,0,0:0:0:0:
192,192,51490,1,0,0:0:0:0:
320,192,51650,1,0,0:0:0:0:
64,192,51730,1,0,0:0:0:0:
320,192,51811,1,0,0:0:0:0:
192,192,51811,1,0,0:0:0:0:
64,192,52051,1,0,0:0:0:0:
320,192,52051,1,0,0:0:0:0:
192,192,52131,1,0,0:0:0:0:
320,192,52212,1,0,0:0:0:0:
192,192,52372,1,0,0:0:0:0:
320,192,52372,1,0,0:0:0:0:
448,192,52532,1,0,0:0:0:0:
192,192,52613,1,0,0:0:0:0:
320,192,52693,1,0,0:0:0:0:
64,192,52773,1,0,0:0:0:0:
320,192,52853,1,0,0:0:0:0:
192,192,53094,1,0,0:0:0:0:
320,192,53094,1,0,0:0:0:0:
448,192,53254,1,0,0:0:0:0:
192,192,53335,1,0,0:0:0:0:
320,192,53575,1,0,0:0:0:0:
64,192,53575,1,0,0:0:0:0:
320,192,53736,1,0,0:0:0:0:
192,192,53736,1,0,0:0:0:0:
448,192,54057,1,0,0:0:0:0:
64,192,54057,1,0,0:0:0:0:
320,192,54217,1,0,0:0:0:0:
192,192,54217,1,0,0:0:0:0:
64,192,54538,1,0,0:0:0:0:
320,192,54538,1,0,0:0:0:0:
64,192,54859,1,0,0:0:0:0:
192,192,54859,1,0,0:0:0:0:
320,192,54859,1,0,0:0:0:0:
64,192,55260,1,0,0:0:0:0:
192,192,55260,1,0,0:0:0:0:
192,192,55500,1,0,0:0:0:0:
320,192,55500,1,0,0:0:0:0:
320,192,55901,1,0,0:0:0:0:
448,192,55901,1,0,0:0:0:0:
320,192,56222,1,0,0:0:0:0:
448,192,56222,1,0,0:0:0:0:
320,192,56543,1,0,0:0:0:0:
448,192,56543,1,0,0:0:0:0:
320,192,56704,1,0,0:0:0:0:
448,192,56704,1,0,0:0:0:0:
320,192,56864,1,0,0:0:0:0:
448,192,56864,1,0,0:0:0:0:
64,192,57265,1,0,0:0:0:0:
192,192,57506,1,0,0:0:0:0:
320,192,57827,1,0,0:0:0:0:
448,192,57827,1,0,0:0:0:0:
448,192,57987,1,0,0:0:0:0:
448,192,58147,1,0,0:0:0:0:
320,192,58147,1,0,0:0:0:0:
320,192,58388,1,0,0:0:0:0:
192,192,58548,1,0,0:0:0:0:
320,192,58548,1,0,0:0:0:0:
64,192,58789,1,0,0:0:0:0:
320,192,58789,1,0,0:0:0:0:
64,192,59110,1,0,0:0:0:0:
320,192,59190,1,0,0:0:0:0:
64,192,59270,1,0,0:0:0:0:
320,192,59351,1,0,0:0:0:0:
448,192,59511,1,0,0:0:0:0:
192,192,59511,1,0,0:0:0:0:
448,192,59671,1,0,0:0:0:0:
192,192,59671,1,0,0:0:0:0:
320,192,59832,1,0,0:0:0:0:
64,192,59912,1,0,0:0:0:0:
192,192,60153,1,0,0:0:0:0:
320,192,60153,1,0,0:0:0:0:
64,192,60474,1,0,0:0:0:0:
320,192,60474,1,0,0:0:0:0:
192,192,60634,1,0,0:0:0:0:
320,192,60634,1,0,0:0:0:0:
448,192,60794,1,0,0:0:0:0:
192,192,60875,1,0,0:0:0:0:
320,192,60955,1,0,0:0:0:0:
448,192,60955,1,0,0:0:0:0:
64,192,60955,1,0,0:0:0:0:
448,192,61035,1,0,0:0:0:0:
192,192,61196,1,0,0:0:0:0:
320,192,61196,1,0,0:0:0:0:
448,192,61196,1,0,0:0:0:0:
64,192,61356,1,0,0:0:0:0:
448,192,61356,1,0,0:0:0:0:
320,192,61436,1,0,0:0:0:0:
320,192,61516,1,0,0:0:0:0:
64,192,61516,1,0,0:0:0:0:
320,192,61677,1,0,0:0:0:0:
64,192,61677,1,0,0:0:0:0:
192,192,61837,1,0,0:0:0:0:
448,192,61917,1,0,0:0:0:0:
192,192,62078,1,0,0:0:0:0:
448,192,62078,1,0,0:0:0:0:
192,192,62238,1,0,0:0:0:0:
320,192,62238,1,0,0:0:0:0:
64,192,62399,1,0,0:0:0:0:
320,192,62399,1,0,0:0:0:0:
448,192,62399,1,0,0:0:0:0:
320,192,62559,1,0,0:0:0:0:
64,192,62639,1,0,0:0:0:0:
448,192,62720,1,0,0:0:0:0:
320,192,62720,1,0,0:0:0:0:
64,192,62800,1,0,0:0:0:0:
448,192,62880,1,0,0:0:0:0:
320,192,62880,1,0,0:0:0:0:
320,192,63040,1,0,0:0:0:0:
448,192,63040,1,0,0:0:0:0:
64,192,63040,128,0,65527:0:0:0:0:
320,192,63682,1,0,0:0:0:0:
192,192,63682,1,0,0:0:0:0:
448,192,64003,1,0,0:0:0:0:
192,192,64003,1,0,0:0:0:0:
320,192,64324,1,0,0:0:0:0:
192,192,64645,1,0,0:0:0:0:
448,192,64645,1,0,0:0:0:0:
320,192,64885,1,0,0:0:0:0:
320,192,65206,1,0,0:0:0:0:
192,192,65527,1,0,0:0:0:0:
320,192,65527,1,0,0:0:0:0:
448,192,65527,128,0,66249:0:0:0:0:
320,192,65848,1,0,0:0:0:0:
192,192,66249,1,0,0:0:0:0:
320,192,66249,128,0,66570:0:0:0:0:
192,192,66490,1,0,0:0:0:0:
448,192,66570,1,0,0:0:0:0:
320,192,66650,1,0,0:0:0:0:
192,192,66730,1,0,0:0:0:0:
448,192,66811,1,0,0:0:0:0:
64,192,66971,1,0,0:0:0:0:
320,192,66971,1,0,0:0:0:0:
448,192,66971,1,0,0:0:0:0:
448,192,67131,1,0,0:0:0:0:
192,192,67131,1,0,0:0:0:0:
320,192,67131,1,0,0:0:0:0:
64,192,67452,1,0,0:0:0:0:
320,192,67452,1,0,0:0:0:0:
320,192,67613,1,0,0:0:0:0:
64,192,67613,1,0,0:0:0:0:
320,192,67773,1,0,0:0:0:0:
192,192,67773,1,0,0:0:0:0:
448,192,67853,1,0,0:0:0:0:
64,192,67934,1,0,0:0:0:0:
320,192,68014,1,0,0:0:0:0:
64,192,68174,1,0,0:0:0:0:
192,192,68174,1,0,0:0:0:0:
64,192,68415,1,0,0:0:0:0:
320,192,68415,1,0,0:0:0:0:
64,192,68736,1,0,0:0:0:0:
320,192,68736,1,0,0:0:0:0:
320,192,68896,1,0,0:0:0:0:
192,192,68896,1,0,0:0:0:0:
448,192,69057,1,0,0:0:0:0:
192,192,69137,1,0,0:0:0:0:
320,192,69137,1,0,0:0:0:0:
448,192,69217,1,0,0:0:0:0:
64,192,69297,1,0,0:0:0:0:
448,192,69377,1,0,0:0:0:0:
320,192,69377,1,0,0:0:0:0:
192,192,69458,1,0,0:0:0:0:
320,192,69458,1,0,0:0:0:0:
64,192,69618,1,0,0:0:0:0:
448,192,69618,1,0,0:0:0:0:
320,192,69778,1,0,0:0:0:0:
320,192,69939,1,0,0:0:0:0:
64,192,70019,1,0,0:0:0:0:
320,192,70099,1,0,0:0:0:0:
192,192,70180,1,0,0:0:0:0:
320,192,70260,1,0,0:0:0:0:
192,192,70340,1,0,0:0:0:0:
320,192,70420,1,0,0:0:0:0:
320,192,70581,1,0,0:0:0:0:
192,192,70901,1,0,0:0:0:0:
320,192,70901,1,0,0:0:0:0:
64,192,71222,1,0,0:0:0:0:
320,192,71222,1,0,0:0:0:0:
320,192,71383,1,0,0:0:0:0:
192,192,71383,1,0,0:0:0:0:
448,192,71543,1,0,0:0:0:0:
192,192,71623,1,0,0:0:0:0:
320,192,71704,1,0,0:0:0:0:
64,192,71784,1,0,0:0:0:0:
192,192,71784,1,0,0:0:0:0:
320,192,71784,1,0,0:0:0:0:
192,192,72105,1,0,0:0:0:0:
64,192,72105,1,0,0:0:0:0:
320,192,72185,1,0,0:0:0:0:
64,192,72426,1,0,0:0:0:0:
320,192,72506,1,0,0:0:0:0:
192,192,72666,1,0,0:0:0:0:
320,192,72666,1,0,0:0:0:0:
448,192,72827,1,0,0:0:0:0:
192,192,72827,1,0,0:0:0:0:
320,192,72907,1,0,0:0:0:0:
448,192,72907,1,0,0:0:0:0:
64,192,72987,1,0,0:0:0:0:
320,192,73067,1,0,0:0:0:0:
448,192,73147,1,0,0:0:0:0:
192,192,73147,1,0,0:0:0:0:
64,192,73147,1,0,0:0:0:0:
64,192,73468,1,0,0:0:0:0:
320,192,73468,1,0,0:0:0:0:
192,192,73789,1,0,0:0:0:0:
320,192,73789,1,0,0:0:0:0:
320,192,73950,1,0,0:0:0:0:
192,192,73950,1,0,0:0:0:0:
320,192,74110,1,0,0:0:0:0:
192,192,74190,1,0,0:0:0:0:
448,192,74270,1,0,0:0:0:0:
64,192,74270,1,0,0:0:0:0:
320,192,74431,1,0,0:0:0:0:
64,192,74511,1,0,0:0:0:0:
320,192,74591,1,0,0:0:0:0:
192,192,74671,1,0,0:0:0:0:
192,192,74832,1,0,0:0:0:0:
448,192,74912,1,0,0:0:0:0:
320,192,74992,1,0,0:0:0:0:
192,192,75073,1,0,0:0:0:0:
448,192,75233,1,0,0:0:0:0:
320,192,75233,1,0,0:0:0:0:
192,192,75313,1,0,0:0:0:0:
320,192,75393,1,0,0:0:0:0:
192,192,75474,1,0,0:0:0:0:
320,192,75554,1,0,0:0:0:0:
64,192,75714,1,0,0:0:0:0:
64,192,75794,1,0,0:0:0:0:
192,192,75875,1,0,0:0:0:0:
320,192,75955,1,0,0:0:0:0:
448,192,76035,1,0,0:0:0:0:
64,192,76035,1,0,0:0:0:0:
192,192,76115,1,0,0:0:0:0:
320,192,76196,1,0,0:0:0:0:
448,192,76356,1,0,0:0:0:0:
64,192,76356,1,0,0:0:0:0:
192,192,76436,1,0,0:0:0:0:
320,192,76516,1,0,0:0:0:0:
448,192,76597,1,0,0:0:0:0:
64,192,76677,1,0,0:0:0:0:
192,192,76757,1,0,0:0:0:0:
320,192,76837,1,0,0:0:0:0:
448,192,76998,1,0,0:0:0:0:
64,192,76998,1,0,0:0:0:0:
192,192,77078,1,0,0:0:0:0:
320,192,77158,1,0,0:0:0:0:
448,192,77238,1,0,0:0:0:0:
64,192,77319,1,0,0:0:0:0:
192,192,77399,1,0,0:0:0:0:
320,192,77479,1,0,0:0:0:0:
448,192,77559,1,0,0:0:0:0:
64,192,77559,1,0,0:0:0:0:
192,192,77720,1,0,0:0:0:0:
448,192,77720,1,0,0:0:0:0:
192,192,77880,1,0,0:0:0:0:
448,192,77880,1,0,0:0:0:0:
320,192,78040,1,0,0:0:0:0:
64,192,78040,1,0,0:0:0:0:
448,192,78121,1,0,0:0:0:0:
192,192,78201,1,0,0:0:0:0:
320,192,78281,1,0,0:0:0:0:
64,192,78281,1,0,0:0:0:0:
448,192,78281,1,0,0:0:0:0:
192,192,78361,1,0,0:0:0:0:
192,192,78682,1,0,0:0:0:0:
448,192,78682,1,0,0:0:0:0:
320,192,79003,1,0,0:0:0:0:
320,192,79163,1,0,0:0:0:0:
320,192,79244,1,0,0:0:0:0:
192,192,79324,1,0,0:0:0:0:
448,192,79645,1,0,0:0:0:0:
192,192,79966,1,0,0:0:0:0:
320,192,79966,1,0,0:0:0:0:
64,192,80286,1,0,0:0:0:0:
320,192,80286,1,0,0:0:0:0:
320,192,80447,1,0,0:0:0:0:
64,192,80527,1,0,0:0:0:0:
320,192,80607,1,0,0:0:0:0:
192,192,80607,1,0,0:0:0:0:
192,192,80928,1,0,0:0:0:0:
448,192,80928,1,0,0:0:0:0:
64,192,81249,1,0,0:0:0:0:
320,192,81249,1,0,0:0:0:0:
192,192,81570,1,0,0:0:0:0:
320,192,81570,1,0,0:0:0:0:
64,192,81730,1,0,0:0:0:0:
448,192,81730,1,0,0:0:0:0:
448,192,81891,1,0,0:0:0:0:
192,192,81891,1,0,0:0:0:0:
320,192,82131,1,0,0:0:0:0:
64,192,82131,1,0,0:0:0:0:
448,192,82212,1,0,0:0:0:0:
64,192,82292,1,0,0:0:0:0:
192,192,82292,1,0,0:0:0:0:
64,192,82532,1,0,0:0:0:0:
320,192,82532,1,0,0:0:0:0:
64,192,82853,1,0,0:0:0:0:
320,192,82934,1,0,0:0:0:0:
320,192,83014,1,0,0:0:0:0:
64,192,83014,1,0,0:0:0:0:
448,192,83174,1,0,0:0:0:0:
192,192,83174,1,0,0:0:0:0:
320,192,83335,1,0,0:0:0:0:
64,192,83335,1,0,0:0:0:0:
320,192,83495,1,0,0:0:0:0:
448,192,83495,1,0,0:0:0:0:
192,192,83495,1,0,0:0:0:0:
64,192,83816,1,0,0:0:0:0:
320,192,83816,1,0,0:0:0:0:
448,192,83816,1,0,0:0:0:0:
64,192,84137,1,0,0:0:0:0:
448,192,84137,1,0,0:0:0:0:
64,192,84297,1,0,0:0:0:0:
448,192,84297,1,0,0:0:0:0:
320,192,84458,1,0,0:0:0:0:
192,192,84458,1,0,0:0:0:0:
448,192,84618,1,0,0:0:0:0:
64,192,84618,1,0,0:0:0:0:
320,192,84778,1,0,0:0:0:0:
192,192,84778,1,0,0:0:0:0:
64,192,85099,1,0,0:0:0:0:
320,192,85099,1,0,0:0:0:0:
64,192,85420,1,0,0:0:0:0:
320,192,85420,1,0,0:0:0:0:
64,192,85581,1,0,0:0:0:0:
320,192,85581,1,0,0:0:0:0:
448,192,85741,1,0,0:0:0:0:
192,192,85741,1,0,0:0:0:0:
64,192,85982,1,0,0:0:0:0:
320,192,86062,1,0,0:0:0:0:
192,192,86142,1,0,0:0:0:0:
448,192,86142,1,0,0:0:0:0:
64,192,86303,1,0,0:0:0:0:
192,192,86383,1,0,0:0:0:0:
320,192,86383,1,0,0:0:0:0:
448,192,86463,1,0,0:0:0:0:
64,192,86623,1,0,0:0:0:0:
320,192,86704,1,0,0:0:0:0:
192,192,86704,1,0,0:0:0:0:
448,192,86784,1,0,0:0:0:0:
64,192,86944,1,0,0:0:0:0:
320,192,86944,1,0,0:0:0:0:
192,192,87024,1,0,0:0:0:0:
448,192,87105,1,0,0:0:0:0:
64,192,87265,128,0,89110:0:0:0:0:
192,192,87265,128,0,89110:0:0:0:0:
320,192,87265,128,0,89110:0:0:0:0:
448,192,87265,128,0,89110:0:0:0:0:
